<?xml version="1.0" standalone="no"?>
<!DOCTYPE svg PUBLIC "-//W3C//DTD SVG 1.1//EN" "http://www.w3.org/Graphics/SVG/1.1/DTD/svg11.dtd" >
<svg xmlns="http://www.w3.org/2000/svg">
<metadata>Generated by IcoMoon</metadata>
<defs>
<font id="blue-ship" horiz-adv-x="1024">
<font-face units-per-em="1024" ascent="960" descent="-64" />
<missing-glyph horiz-adv-x="1024" />
<glyph unicode="&#x20;" horiz-adv-x="512" d="" />
<glyph unicode="&#xe900;" glyph-name="arrow-bottom" d="M0 704l512-512 512 512h-1024z" />
<glyph unicode="&#xe901;" glyph-name="facebook" d="M546.133-64c-167.253 0-337.92 0-505.173 0-20.48 10.24-34.133 23.893-40.96 40.96 0 314.027 0 628.053 0 942.080 10.24 20.48 23.893 34.133 40.96 40.96 314.027 0 628.053 0 942.080 0 20.48-10.24 34.133-23.893 40.96-40.96 0-314.027 0-628.053 0-942.080-10.24-20.48-23.893-34.133-40.96-40.96-92.16 0-184.32 0-276.48 0 0 133.12 0 262.827 0 395.947 37.547 0 75.093 0 112.64 0 13.653 0 20.48 3.413 20.48 20.48 0 13.653 3.413 23.893 3.413 37.547 3.413 30.72 6.827 64.853 13.653 98.987-51.2 0-102.4 0-150.187 0 0 40.96 0 81.92 0 122.88 0 23.893 17.067 44.373 40.96 47.787 20.48 3.413 37.547 3.413 58.027 3.413s37.547 0 58.027 0c0 47.787 0 92.16 0 143.36-54.613 0-105.813 3.413-157.013 0-75.093-6.827-129.707-51.2-150.187-126.293-6.827-27.307-10.24-54.613-10.24-81.92 0-34.133 0-68.267 0-105.813-44.373 0-88.747 0-133.12 0 0-47.787 0-95.573 0-143.36 0-3.413 6.827-10.24 13.653-10.24 23.893 0 47.787 0 71.68 0 17.067 0 30.72 0 47.787 0 0-139.947 0-269.653 0-402.773z" />
<glyph unicode="&#xe902;" glyph-name="flag" d="M798.72 594.773l122.88 242.347h-669.013v44.373h34.133v78.507h-184.32v-78.507h40.96v-945.493h109.227v399.36h669.013z" />
<glyph unicode="&#xe903;" glyph-name="ft-arrow-right" d="M0 0.853l1024 447.147-1024 447.147v-894.293z" />
<glyph unicode="&#xe904;" glyph-name="instagram" d="M0 38.4c0 273.067 0 546.133 0 819.2 0 0 0 3.413 3.413 3.413 10.24 51.2 40.96 81.92 88.747 95.573 3.413 0 6.827 3.413 10.24 3.413 273.067 0 546.133 0 819.2 0 3.413 0 3.413 0 6.827-3.413 54.613-10.24 95.573-58.027 95.573-116.053 0-262.827 0-525.653 0-788.48 0-64.853-51.2-116.053-116.053-116.053-262.827 0-525.653 0-788.48 0-54.613 0-98.987 37.547-112.64 88.747-3.413 6.827-6.827 10.24-6.827 13.653zM815.787 526.507c23.893-98.987 6.827-191.147-54.613-269.653s-143.36-122.88-245.76-122.88c-81.92 0-153.6 23.893-215.040 81.92-92.16 85.333-119.467 191.147-95.573 310.613-30.72 0-58.027 0-88.747 0 0-3.413 0-6.827 0-10.24 0-139.947 0-279.893 0-416.427 0-27.307 17.067-44.373 44.373-44.373 232.107 0 467.627 0 699.733 0 27.307 0 44.373 17.067 44.373 44.373 0 139.947 0 276.48 0 416.427 0 3.413 0 6.827 0 10.24-27.307 0-58.027 0-88.747 0zM512 250.027c109.227 0 197.973 88.747 197.973 197.973s-88.747 197.973-197.973 197.973c-109.227 0-197.973-88.747-197.973-197.973s88.747-197.973 197.973-197.973zM904.533 744.96c0 17.067 0 37.547 0 54.613 0 23.893-17.067 40.96-40.96 40.96-37.547 0-75.093 0-112.64 0-23.893 0-40.96-17.067-40.96-40.96 0-40.96 0-78.507 0-119.467 0-23.893 17.067-37.547 37.547-37.547 40.96 0 78.507 0 119.467 0 23.893 0 37.547 17.067 37.547 40.96 3.413 20.48 0 40.96 0 61.44z" />
<glyph unicode="&#xe905;" glyph-name="login" d="M727.040 448l-215.040 215.040v-160.427h-481.28v-105.813h481.28v-160.427l215.040 211.627zM30.72 854.187v-245.76h105.813v245.76h750.933v-808.96h-750.933v245.76h-105.813v-245.76c0-61.44 47.787-109.227 105.813-109.227h750.933c58.027 0 105.813 47.787 105.813 105.813v812.373c0 58.027-47.787 105.813-105.813 105.813h-750.933c-58.027 0-105.813-47.787-105.813-105.813z" />
<glyph unicode="&#xe906;" glyph-name="report" d="M614.4 960h-409.6c-54.613 0-102.4-47.787-102.4-102.4v-819.2c0-58.027 44.373-102.4 102.4-102.4h614.4c54.613 0 102.4 44.373 102.4 102.4v614.4l-307.2 307.2zM716.8 140.8h-409.6v102.4h409.6v-102.4zM716.8 345.6h-409.6v102.4h409.6v-102.4zM563.2 601.6v283.307l279.893-279.893h-279.893z" />
<glyph unicode="&#xe907;" glyph-name="ship" d="M887.467 28.16c-64.853 0-129.707 20.48-187.733 61.44-112.64-78.507-259.413-78.507-375.467 0-58.027-40.96-122.88-61.44-187.733-61.44h-92.16v-92.16h92.16c64.853 0 129.707 17.067 187.733 47.787 119.467-61.44 256-61.44 375.467 0 58.027-30.72 122.88-47.787 187.733-47.787h92.16v92.16h-92.16zM136.533 123.733v0c78.507 0 143.36 40.96 191.147 92.16 44.373-51.2 112.64-92.16 187.733-92.16s139.947 40.96 187.733 92.16c44.373-51.2 112.64-92.16 187.733-92.16h-3.413l88.747 221.867c3.413 13.653 3.413 23.893-3.413 37.547-6.827 10.24-17.067 20.48-27.307 23.893l-389.12 126.293v27.307h324.267c20.48 0 34.133 20.48 23.893 40.96l-27.307 51.2c-3.413 10.24-13.653 13.653-23.893 13.653h-296.96v54.613h266.24c13.653 0 23.893 13.653 17.067 27.307l-68.267 133.12c-3.413 6.827-6.827 10.24-17.067 10.24h-197.973v68.267h-95.573v-68.267h-194.56c-6.827 0-13.653-3.413-13.653-10.24l-68.267-133.12c-6.827-13.653 0-27.307 13.653-27.307h266.24v-58.027h-296.96c-10.24 0-20.48-6.827-23.893-13.653l-30.72-51.2c-10.24-17.067 3.413-40.96 23.893-40.96h327.68v-27.307l-385.707-126.293c-13.653-3.413-23.893-13.653-27.307-23.893-6.827-10.24-6.827-23.893-3.413-37.547l88.747-218.453z" />
<glyph unicode="&#xe908;" glyph-name="twitter" d="M1024 765.44c-37.547-17.067-78.507-27.307-119.467-34.133 44.373 27.307 75.093 68.267 92.16 116.053-40.96-23.893-85.333-40.96-133.12-51.2-37.547 40.96-92.16 64.853-153.6 64.853-116.053 0-211.627-95.573-211.627-211.627 0-17.067 3.413-34.133 6.827-47.787-174.080 13.653-331.093 95.573-433.493 225.28-17.067-30.72-27.307-68.267-27.307-105.813 0-71.68 37.547-136.533 92.16-174.080-34.133 0-68.267 10.24-95.573 27.307 0 0 0-3.413 0-3.413 0-102.4 71.68-187.733 167.253-204.8-17.067-3.413-37.547-6.827-54.613-6.827-13.653 0-27.307 0-40.96 3.413 27.307-81.92 105.813-143.36 194.56-146.773-71.68-58.027-163.84-88.747-259.413-88.747-17.067 0-34.133 0-51.2 3.413 92.16-58.027 204.8-95.573 320.853-95.573 385.707 0 597.333 320.853 597.333 597.333 0 10.24 0 17.067 0 27.307 44.373 27.307 81.92 64.853 109.227 105.813z" />
<glyph unicode="&#xe909;" glyph-name="youtube" d="M1013.76 652.8c0 0-10.24 71.68-40.96 102.4-37.547 40.96-81.92 40.96-102.4 44.373-143.36 10.24-358.4 10.24-358.4 10.24v0c0 0-215.040 0-358.4-10.24-20.48-3.413-64.853-3.413-102.4-44.373-30.72-30.72-40.96-102.4-40.96-102.4s-10.24-81.92-10.24-167.253v-78.507c0-81.92 10.24-163.84 10.24-163.84s10.24-71.68 40.96-102.4c37.547-40.96 88.747-40.96 112.64-44.373 81.92-6.827 348.16-10.24 348.16-10.24s215.040 0 358.4 10.24c20.48 3.413 64.853 3.413 102.4 44.373 30.72 30.72 40.96 102.4 40.96 102.4s10.24 81.92 10.24 167.253v78.507c0 81.92-10.24 163.84-10.24 163.84zM406.187 314.88v286.72l276.48-143.36-276.48-143.36z" />
<glyph unicode="&#xe90a;" glyph-name="blog" d="M757.76 659.627l-160.427 160.427-426.667-426.667v-160.427h160.427l426.667 426.667zM884.053 785.92c17.067 17.067 17.067 44.373 0 61.44l-98.987 98.987c-17.067 17.067-44.373 17.067-61.44 0l-85.333-81.92 160.427-160.427 85.333 81.92zM0 106.667h1024v-170.667h-1024v170.667z" />
<glyph unicode="&#xe90b;" glyph-name="mytop" d="M512 434.347c71.68 0 129.707 58.027 129.707 129.707s-58.027 126.293-129.707 126.293-129.707-58.027-129.707-129.707 58.027-126.293 129.707-126.293zM768 205.653c0 85.333-170.667 129.707-256 129.707s-256-40.96-256-129.707v-40.96h512v40.96zM911.36 960h-798.72c-61.44 0-112.64-51.2-112.64-112.64v-795.307c0-64.853 51.2-116.053 112.64-116.053h795.307c61.44 0 112.64 51.2 112.64 112.64v798.72c3.413 61.44-47.787 112.64-109.227 112.64zM911.36 48.64h-798.72v798.72h795.307v-798.72z" />
<glyph unicode="&#xe90c;" glyph-name="question" d="M505.173 960c-283.307-3.413-508.587-235.52-505.173-518.827s235.52-508.587 518.827-505.173c283.307 3.413 508.587 235.52 505.173 518.827s-235.52 508.587-518.827 505.173zM501.76 79.36h-3.413c-54.613 0-95.573 44.373-92.16 98.987 0 54.613 40.96 92.16 95.573 92.16h3.413c58.027 0 95.573-40.96 95.573-98.987-3.413-51.2-44.373-92.16-98.987-92.16zM703.147 506.027c-10.24-17.067-37.547-37.547-68.267-61.44l-34.133-23.893c-20.48-13.653-30.72-27.307-34.133-40.96-3.413-10.24-3.413-13.653-6.827-34.133v-6.827h-133.12v10.24c0 44.373 3.413 71.68 20.48 95.573 30.72 34.133 95.573 78.507 98.987 78.507 10.24 6.827 17.067 13.653 23.893 23.893 13.653 20.48 20.48 34.133 20.48 47.787 0 20.48-6.827 40.96-17.067 54.613-10.24 17.067-34.133 23.893-64.853 23.893s-51.2-10.24-64.853-30.72c-13.653-20.48-20.48-44.373-20.48-64.853v-6.827h-136.533v6.827c3.413 81.92 34.133 143.36 88.747 177.493 34.133 23.893 78.507 34.133 126.293 34.133 64.853 0 119.467-17.067 163.84-47.787s64.853-78.507 64.853-143.36c6.827-30.72-3.413-64.853-27.307-92.16z" />
<glyph unicode="&#xe90d;" glyph-name="account" d="M764.587 577.707c0-41.473-33.62-75.093-75.093-75.093s-75.093 33.62-75.093 75.093c0 41.473 33.62 75.093 75.093 75.093s75.093-33.62 75.093-75.093zM409.6 577.707c0-41.473-33.62-75.093-75.093-75.093s-75.093 33.62-75.093 75.093c0 41.473 33.62 75.093 75.093 75.093s75.093-33.62 75.093-75.093zM512 960c-283.307 0-512-228.693-512-512s228.693-512 512-512c283.307 0 512 228.693 512 512s-228.693 512-512 512zM512 38.4c-225.28 0-409.6 184.32-409.6 409.6s184.32 409.6 409.6 409.6 409.6-184.32 409.6-409.6-184.32-409.6-409.6-409.6zM512 243.2c-75.093 0-139.947 40.96-177.493 102.4h-85.333c40.96-105.813 143.36-177.493 262.827-177.493s221.867 75.093 262.827 177.493h-85.333c-37.547-61.44-102.4-102.4-177.493-102.4z" />
<glyph unicode="&#xe90e;" glyph-name="btn-clear" d="M512 960c-283.307 0-512-228.693-512-512s228.693-512 512-512c283.307 0 512 228.693 512 512s-228.693 512-512 512zM805.547 219.307l-58.027-58.027-235.52 232.107-235.52-235.52-58.027 58.027 235.52 235.52-232.107 235.52 58.027 58.027 235.52-235.52 235.52 235.52 54.613-58.027-235.52-235.52 235.52-232.107z" />
<glyph unicode="&#xe90f;" glyph-name="calendar" d="M675.84 526.507h102.4v-102.4h-102.4v102.4zM873.813 823.467v102.4h-102.4v-102.4h-518.827v102.4h-102.4v-102.4h-150.187v-819.2c0-20.48 13.653-34.133 34.133-34.133h955.733c20.48 0 34.133 13.653 34.133 34.133v819.2h-150.187zM921.6 72.533h-819.2v614.4h819.2v-614.4zM675.84 328.533h102.4v-102.4h-102.4v102.4zM460.8 328.533h102.4v-102.4h-102.4v102.4zM460.8 526.507h102.4v-102.4h-102.4v102.4zM245.76 526.507h102.4v-102.4h-102.4v102.4zM245.76 328.533h102.4v-102.4h-102.4v102.4z" />
<glyph unicode="&#xe910;" glyph-name="facebook-mark" d="M733.867 448h-139.947v-512h-191.147v512h-129.707v177.493h126.293v102.4c0 143.36 37.547 232.107 208.213 232.107h143.36v-177.493h-88.747c-64.853 0-68.267-23.893-68.267-71.68v-88.747h157.013l-17.067-174.080z" />
<glyph unicode="&#xe911;" glyph-name="follow" d="M682.667 789.333c-187.733 0-341.333-153.6-341.333-341.333 0-47.787 10.24-95.573 27.307-136.533 37.547 6.827 68.267 30.72 88.747 58.027-10.24 23.893-13.653 51.2-13.653 78.507 0 133.12 105.813 238.933 238.933 238.933s238.933-105.813 238.933-238.933c0-119.467-88.747-218.453-201.387-235.52-23.893-37.547-54.613-71.68-85.333-102.4 13.653-3.413 30.72-3.413 47.787-3.413 187.733 0 341.333 153.6 341.333 341.333s-153.6 341.333-341.333 341.333zM341.333 106.667c187.733 0 341.333 153.6 341.333 341.333 0 47.787-10.24 95.573-27.307 136.533-37.547-6.827-68.267-30.72-88.747-58.027 10.24-23.893 13.653-51.2 13.653-78.507 0-133.12-105.813-238.933-238.933-238.933s-238.933 105.813-238.933 238.933c0 119.467 88.747 218.453 201.387 235.52 23.893 37.547 54.613 71.68 85.333 102.4-13.653 3.413-30.72 3.413-47.787 3.413-187.733 0-341.333-153.6-341.333-341.333s153.6-341.333 341.333-341.333z" />
<glyph unicode="&#xe912;" glyph-name="garbage" d="M651.947 857.6v102.4h-279.893v-102.4h-320.853v-102.4h921.6v102.4zM661.876 589.186v-464.213h-102.4v464.213h102.4zM466.384 588.254v-464.213h-102.4v464.213h102.4zM785.067 680.107v-641.707h-546.133v641.707h-102.4v-675.84c0-37.547 30.72-68.267 68.267-68.267h614.4c37.547 0 68.267 30.72 68.267 68.267v675.84h-102.4z" />
<glyph unicode="&#xe913;" glyph-name="join" d="M512 960c-283.307 0-512-228.693-512-512s228.693-512 512-512c283.307 0 512 228.693 512 512s-228.693 512-512 512zM512 38.4c-225.28 0-409.6 184.32-409.6 409.6s184.32 409.6 409.6 409.6c225.28 0 409.6-184.32 409.6-409.6s-184.32-409.6-409.6-409.6zM768 594.773c0-43.358-35.149-78.507-78.507-78.507s-78.507 35.149-78.507 78.507c0 43.358 35.149 78.507 78.507 78.507s78.507-35.149 78.507-78.507zM413.013 594.773c0-43.358-35.149-78.507-78.507-78.507s-78.507 35.149-78.507 78.507c0 43.358 35.149 78.507 78.507 78.507s78.507-35.149 78.507-78.507zM512 185.173c119.467 0 221.867 75.093 262.827 177.493h-525.653c40.96-102.4 143.36-177.493 262.827-177.493z" />
<glyph unicode="&#xe914;" glyph-name="pin" d="M512 960c-177.493 0-320.853-143.36-320.853-320.853 0-51.2 10.24-95.573 30.72-139.947 3.413 0 290.133-563.2 290.133-563.2l286.72 559.787c23.893 44.373 34.133 92.16 34.133 146.773 0 174.080-143.36 317.44-320.853 317.44zM512 448c-105.813 0-191.147 85.333-191.147 191.147s85.333 191.147 191.147 191.147c105.813 0 191.147-85.333 191.147-191.147s-85.333-191.147-191.147-191.147z" />
<glyph unicode="&#xe915;" glyph-name="slide-arrow-l" d="M791.893-64l-621.227 512 621.227 512 61.44-71.68-532.48-440.32 532.48-440.32z" />
<glyph unicode="&#xe916;" glyph-name="slide-arrow-r" d="M232.107-64l621.227 512-621.227 512-61.44-71.68 532.48-440.32-532.48-440.32z" />
<glyph unicode="&#xe917;" glyph-name="time" d="M549.547 738.133h-75.093v-307.2l187.733-187.733 54.613 54.613-167.253 167.253zM512 960c-283.307 0-512-228.693-512-512s228.693-512 512-512c283.307 0 512 228.693 512 512s-228.693 512-512 512zM512 38.4c-225.28 0-409.6 184.32-409.6 409.6s184.32 409.6 409.6 409.6c225.28 0 409.6-184.32 409.6-409.6s-184.32-409.6-409.6-409.6z" />
<glyph unicode="&#xe918;" glyph-name="unfollow" d="M682.667 789.333c-61.44 0-119.467-17.067-170.667-44.373-51.2 27.307-109.227 44.373-170.667 44.373-187.733 0-341.333-153.6-341.333-341.333s153.6-341.333 341.333-341.333c61.44 0 119.467 17.067 170.667 44.373 51.2-30.72 109.227-44.373 170.667-44.373 187.733 0 341.333 153.6 341.333 341.333s-153.6 341.333-341.333 341.333zM512 280.747c-40.96 44.373-68.267 102.4-68.267 167.253s27.307 122.88 68.267 167.253c40.96-44.373 68.267-102.4 68.267-167.253s-27.307-122.88-68.267-167.253zM102.4 448c0 133.12 105.813 238.933 238.933 238.933 30.72 0 58.027-6.827 85.333-17.067-51.2-61.44-85.333-136.533-85.333-221.867s30.72-163.84 85.333-221.867c-27.307-10.24-54.613-17.067-85.333-17.067-133.12 0-238.933 105.813-238.933 238.933zM682.667 209.067c-30.72 0-58.027 6.827-85.333 17.067 51.2 61.44 85.333 136.533 85.333 221.867s-30.72 163.84-85.333 221.867c27.307 10.24 54.613 17.067 85.333 17.067 133.12 0 238.933-105.813 238.933-238.933s-105.813-238.933-238.933-238.933z" />
<glyph unicode="&#xe919;" glyph-name="call" d="M1024 192l-522.24 747.52-368.64-658.773 3.413-3.413-136.533-44.373 194.56-276.48 88.747 116.053z" />
</font>
</defs>
</svg>
